Xpoint
   [напомнить пароль]

Наложить один flv на другой при помощи ffmpeg

Метки: [без меток]
2010-03-25 12:18:29 [обр] Lytkin[досье]

Есть 2 файла fon_lame.flv и music_lame.flv без видео, только звук. Необходимо наложить один на другой.
Делаю:
ffmpeg -y -i fon_lame.flv -acodec copy -i music_lame.flv -acodec copy vot.flv -acodec copy -newaudio

Вывод:
FFmpeg version SVN-r13582, Copyright (c) 2000-2008 Fabrice Bellard, et al.
  configuration: --prefix=/usr --libdir=${prefix}/lib --shlibdir=${prefix}/lib --bindir=${prefix}/bin --incdir=${prefix}/include/ffmpeg --enable-shared --enable-libmp3lame --enable-gpl --enable-libfaad --mandir=${prefix}/share/man --enable-libvorbis --enable-pthreads --enable-libfaac --enable-libxvid --enable-postproc --enable-libamr-nb --enable-libamr-wb --enable-x11grab --enable-libgsm --enable-libx264 --enable-liba52 --enable-libtheora --extra-cflags=-Wall -g -fPIC -DPIC --cc=ccache cc --enable-swscale --enable-libdc1394 --enable-nonfree --disable-mmx --disable-stripping --enable-avfilter --enable-libdirac --disable-decoder=libdirac --enable-libschroedinger --disable-encoder=libschroedinger --disable-altivec --disable-armv5te --disable-armv6 --disable-vis
  libavutil version: 49.7.0
  libavcodec version: 51.58.0
  libavformat version: 52.16.0
  libavdevice version: 52.0.0
  libavfilter version: 0.0.0
  built on May 3 2009 12:07:18, gcc: 4.3.2
Input #0, flv, from 'fon_lame.flv':
  Duration: 00:02:56.71, start: 0.000000, bitrate: 256 kb/s
    Stream #0.0: Audio: mp3, 44100 Hz, stereo, 256 kb/s
Input #1, flv, from 'music_lame.flv':
  Duration: 00:00:50.99, start: 0.000000, bitrate: 256 kb/s
    Stream #1.0: Audio: mp3, 44100 Hz, stereo, 256 kb/s
Output #0, flv, to 'vot.flv':
    Stream #0.0: Audio: libmp3lame, 44100 Hz, stereo, 256 kb/s
    Stream #0.1: Audio: libmp3lame, 44100 Hz, stereo, 256 kb/s
Stream mapping:
  Stream #0.0 -> #0.0
  Stream #1.0 -> #0.1
Press [q] to stop encoding
size= 7252kB time=50.99 bitrate=1165.1kbits/s

Получается что-то похожее, но звук файла music_lame.flv очень искаженный.

Подскажите в чем может быть проблема?

Powered by POEM™ Engine Copyright © 2002-2005